Main Privacy Policy DMCA Contacts
» » Chopin / Raoul Koczalski - Op. 64, No. 1 / Op. 34, No. 3 / Op. 64, No. 3 / Op. 70, No. 1

Chopin / Raoul Koczalski - Op. 64, No. 1 / Op. 34, No. 3 / Op. 64, No. 3 / Op. 70, No. 1 album download

Chopin / Raoul Koczalski - Op. 64, No. 1 / Op. 34, No. 3 / Op. 64, No. 3 / Op. 70, No. 1 album download
Performer: Chopin
Title: Op. 64, No. 1 / Op. 34, No. 3 / Op. 64, No. 3 / Op. 70, No. 1
Country: Europe
Genre: Classical
Style:Romantic
Released: 1939
MP3 album szie: 1244 mb
FLAC album size: 1679 mb

Raoul Koczalski, Chopin. Raoul Koczalski, Chopin - Op. 64, No. 1, Op. 34, No. 3, Op. 70, No. 1 ‎(Shellac, 12").

Album · 2011 · 54 Songs. Polonaise No. 3 in A Major, Op. 40, No. 1, "Military". 28. Waltz No. 2 in A-Flat Major, Op. 1, "Valse brillante". 29. 4 in F Major, Op. 3, "Valse brillante". 30. 6 in D-Flat Major, Op. 1, "Minute". 31. 8 in A-Flat Major, Op. 3. By Frédéric Chopin. 32. 11 in G-Flat Major, Op. 1. 33. Mazurka No. 25 in B Minor, Op.

10, No. 12), and the Minute Waltz (Op. 1). However, with the exception of his Funeral March, the composer never named an instrumental work beyond genre and number, leaving all potential extramusical associations to the listener; the names by which many of his pieces are known were invented by others. Russia in mind; it merely appeared at that time Chopin's polonaises show a marked advance on those of his Polish predecessors in the form (who included his teachers Żywny and Elsner).

64, No. 1, Valse du petit chien (French for "Waltz of the little dog"), popularly known in English as the "Minute Waltz", is a piano waltz composed by Frédéric Chopin. It is dedicated to the Countess Delfina Potocka. No, give me more info.

Download PDF. o. 0 n. Intermediate Difficulty. Piano sheet music for o., composed by Chopin for piano o. 4 n. Minute Waltz (Petit Chien).

No. 1 in A♭ major Valse Brilliante. Piano Sonata N., O. 8. Variations brillantes, O. 2. Variations in A major, . 7.

Valse brillante in A flat major, O. Valse in F major, O. Valse in D flat major, O. Valse in A flat major, O. Valse in G flat major, O. Mazurka in B minor, O. 3 N. 34. Mazurka in A minor, O. 8 N. 35. Impromptu in F sharp major, O. 6 36. Impromptu in A flat major, O. 9 N. 37. Three Ecossaises O. 2 CD2: Wolfgang Amadeus Mozart (1756-1791) 01. Waltzes in B flat major and in F major Franz Schubert (1797-1828), Franz Liszt (1811-1886) 0. minor, O. " PERFORMER "Raoul Koczalski" INDEX 01 00:35:31 TRACK 03 AUDIO TITLE "Prelude in G major, O. " PERFORMER "Raoul Koczalski" INDEX 01 02:00:34 TRACK 04 AUDIO TITLE "Prelude in E minor, O. " PERFORMER "Raoul Koczalski" INDEX 01 02:56:27 TRACK 05 AUDIO TITLE "Prelude in D major, O.

chopin op 70 no 1. Arthur Rubinstein - Chopin Waltz Op. 64 No. 3 in A Flat. Chopin Valse O. - Paul Barton FEURICH 218 piano. Charles Richard-Hamelin – Waltz in A flat major Op. 3 (second stage). Chopin - Waltz Op. 2 (Rubinstein). Rafal Blechacz - Chopin Waltzes, O. 4 N°1 to 3. EVGENY KISSIN plays CHOPIN Waltz O. 4 . Chopin - Minute Waltz (Op. Chopin: Complete Waltzes (Full Album) Played by Alessandro Deljavan. Frédéric Chopin Waltz N. in A Flat Major O. for Piano (SD). Waltz in A-flat major, Op. 3 (Chopin) - Sheet Music

Tracklist

Op. 64, No. 1: Valse Des-dur - D Flat Major
Op. 34, No. 3: Valse F-dur - F Major
Op. 64, No. 3: Valse, As-dur - A Flat Major
Op. 70, No. 1: Valse, Ges-dur - G Flat Major

Versions

Category Artist Title (Format) Label Category Country Year
67533 Chopin* / Raoul Koczalski Chopin* / Raoul Koczalski - Op. 64, No. 1 / Op. 34, No. 3 / Op. 64, No. 3 / Op. 70, No. 1 ‎(Shellac, 12") Polydor 67533 Europe 1939
67533 Raoul Koczalski, Chopin* Raoul Koczalski, Chopin* - Op. 64, No. 1 / Op. 34, No. 3 / Op. 64, No. 3 / Op. 70, No. 1 ‎(Shellac, 12") Polydor 67533 Europe Unknown