Main Privacy Policy DMCA Contacts
» » Mel Tormé - South Of The Border

Mel Tormé - South Of The Border album download

Mel Tormé - South Of The Border album download
Performer: Mel Tormé
Title: South Of The Border
Country: UK
Genre: Jazz / Pop
Style:Easy Listening
Released: 1965
MP3 album szie: 1747 mb
FLAC album size: 1560 mb

Mel Torme - Rosita (Remastered 2018) (02:54, 320Kb/s). Mel Torme - Six Lessons from Madame la Zonga (Remastered 2018) (03:07, 320Kb/s). On this page you can listen to the album, get information about the album, see the list of songs and much more. Listen online and stay in a good mood.

Matrix, Runout (Side 1 runout - stamped): W8062 1N. Matrix, Runout (Side 1 label): W8062. Other Versions (2 of 2) View All. Cat.

Mel Tormé – vocals, drums. Frank Beach – trumpet. An album is a collection of audio recordings issued as a collection on compact disc, vinyl, audio tape, or another medium. Albums of recorded music were developed in the early 20th century as individual 78-rpm records collected in a bound book resembling a photograph album; this format evolve. arly record albums were multiple 78rpm discs packaged in book form, like a photograph album. A vinyl LP on a turntable.

Mel Torme The Christmas Song (Chestnuts Roasting On An Open Fire). play) (pause) (download) (fb) (vk) (tw). Mel Torme A Day In The Life Of Bonnie And Clyde.

Michael Carr, Jimmy Kennedy. Billy May, Mel Tormé.

Melvin Howard Tormé (September 13, 1925 – June 5, 1999), nicknamed The Velvet Fog, was an American musician, known for his jazz singing. He was also a jazz composer and arranger, drummer, pianist, and actor in radio, film, and television, and the author of five books. He composed the music for th. ore . Year: 1959.

Треклист: Mel Tormé – ¡Ole Tormé! . 51 0 11975 2 2:39. wav" WAVE INDEX 01 00:00:00 TRACK 11 AUDIO TITLE "The Rhumba Jumps" PERFORMER "Mel Torme" INDEX 00 02:04:45 FILE "11 - The Rhumba Jumps. wav" WAVE INDEX 01 00:00:00 TRACK 12 AUDIO TITLE "Vaya Con Dios" PERFORMER "Mel Torme" INDEX 00 02:10:60 FILE "12 - Vaya Con Dios. wav" WAVE INDEX 01 00:00:00.

Tracklist

A1 At The Cross Roads
A2 Frensi
A3 Adios
A4 Baia
A5 Six Lessons From Madame La Zonga
A6 La Rosita
B1 South Of The Border
B2 Nina
B3 Cuban Love Song
B4 Perfidia
B5 The Rhumba Jumps
B6 Vaya Con Dios

Credits

  • Orchestra – Billy May And His Orchestra

Notes

Billy May orchestra only credited on back.

Issued in mono only. "T 388" on sleeve, "T. 388" on labels.

Other versions

Category Artist Title (Format) Label Category Country Year
T388, T. 388 Mel Tormé South Of The Border ‎(LP, Album, Mono, Club) World Record Club, World Record Club T388, T. 388 UK 1965
TT 388 Mel Tormé South Of The Border ‎(Reel, 4tr Mono, 5" Reel, Album, Club) World Record Club TT 388 UK 1965